<?xml version="1.0" encoding="UTF-8"?>
<svg width="490mm" height="70mm" fill-rule="evenodd" stroke-linejoin="round" stroke-width="28.222" preserveAspectRatio="xMidYMid" version="1.2" viewBox="0 0 49000 7e3" xml:space="preserve" xmlns="http://www.w3.org/2000/svg" xmlns:cc="http://creativecommons.org/ns#" xmlns:dc="http://purl.org/dc/elements/1.1/" xmlns:ooo="http://xml.openoffice.org/svg/export" xmlns:rdf="http://www.w3.org/1999/02/22-rdf-syntax-ns#"><metadata><rdf:RDF><cc:Work rdf:about=""><dc:format>image/svg+xml</dc:format><dc:type rdf:resource="http://purl.org/dc/dcmitype/StillImage"/></cc:Work></rdf:RDF></metadata><defs class="ClipPathGroup"><clipPath id="presentation_clip_path"><rect width="49000" height="7e3"/></clipPath></defs><defs><font id="EmbeddedFont_1" horiz-adv-x="2048"><font-face font-family="Arial Black embedded" ascent="2249" descent="635" units-per-em="2048"/><missing-glyph d="M 0,0 L 2047,0 2047,2047 0,2047 0,0 Z" horiz-adv-x="2048"/><glyph d="M 619,1018 C 740,1018 843,975 930,889 1016,803 1059,699 1059,578 1059,457 1016,353 930,267 844,180 740,137 619,137 498,137 394,180 308,267 221,353 178,457 178,578 178,704 222,809 310,893 397,976 500,1018 619,1018 Z" horiz-adv-x="900" unicode="●"/><glyph d="M 6,1062 L 435,1062 655,355 858,1062 1259,1062 838,-73 C 790,-202 741,-290 691,-335 620,-399 512,-431 368,-431 309,-431 219,-423 96,-407 L 64,-123 C 123,-142 188,-151 260,-151 308,-151 347,-140 376,-118 406,-96 431,-57 452,0 L 6,1062 Z" horiz-adv-x="1271" unicode="y"/><glyph d="M 1242,0 L 862,0 862,172 C 805,101 748,51 691,21 633,-9 562,-24 478,-24 366,-24 278,10 215,77 151,144 119,247 119,386 L 119,1062 528,1062 528,478 C 528,411 540,364 565,336 590,308 624,294 669,294 718,294 758,313 789,350 820,387 835,454 835,551 L 835,1062 1242,1062 1242,0 Z" horiz-adv-x="1139" unicode="u"/><glyph d="M 614,1466 L 614,1062 838,1062 838,764 614,764 614,388 C 614,343 618,313 627,298 640,275 664,264 697,264 727,264 769,273 823,290 L 853,9 C 752,-13 658,-24 571,-24 470,-24 395,-11 347,15 299,41 264,80 241,133 218,186 206,272 206,390 L 206,764 56,764 56,1062 206,1062 206,1257 614,1466 Z" horiz-adv-x="795" unicode="t"/><glyph d="M 127,1062 L 508,1062 508,888 C 545,963 583,1015 622,1044 661,1072 709,1086 766,1086 826,1086 892,1067 963,1030 L 837,740 C 789,760 751,770 723,770 670,770 628,748 599,704 557,642 536,526 536,356 L 536,0 127,0 127,1062 Z" horiz-adv-x="874" unicode="r"/><glyph d="M 73,528 C 73,690 128,824 237,929 346,1034 494,1086 680,1086 893,1086 1053,1024 1162,901 1249,802 1293,679 1293,534 1293,371 1239,237 1131,133 1022,28 872,-24 681,-24 510,-24 372,19 267,106 138,213 73,354 73,528 Z M 481,529 C 481,434 500,364 539,319 577,274 625,251 683,251 742,251 790,273 828,318 865,363 884,434 884,533 884,625 865,694 827,739 789,784 742,806 686,806 627,806 578,783 539,738 500,692 481,622 481,529 Z" horiz-adv-x="1244" unicode="o"/><glyph d="M 123,1062 L 502,1062 502,889 C 559,960 616,1010 674,1041 732,1071 803,1086 886,1086 999,1086 1087,1053 1151,986 1214,919 1246,815 1246,675 L 1246,0 837,0 837,584 C 837,651 825,698 800,726 775,753 741,767 696,767 647,767 607,748 576,711 545,674 530,607 530,510 L 530,0 123,0 123,1062 Z" horiz-adv-x="1139" unicode="n"/><glyph d="M 126,1062 L 506,1062 506,907 C 561,972 616,1018 672,1045 727,1072 795,1086 874,1086 958,1086 1025,1071 1075,1041 1124,1011 1165,966 1196,907 1260,976 1318,1024 1371,1049 1423,1074 1488,1086 1566,1086 1679,1086 1768,1052 1832,985 1896,917 1928,811 1928,667 L 1928,0 1520,0 1520,605 C 1520,653 1511,689 1492,712 1465,749 1431,767 1390,767 1343,767 1304,750 1275,715 1246,680 1231,625 1231,548 L 1231,0 823,0 823,585 C 823,632 820,663 815,680 806,707 791,728 770,745 748,761 723,769 695,769 648,769 609,751 579,716 549,681 534,623 534,542 L 534,0 126,0 126,1062 Z" horiz-adv-x="1826" unicode="m"/><glyph d="M 137,1466 L 545,1466 545,0 137,0 137,1466 Z" horiz-adv-x="425" unicode="l"/><glyph d="M 139,1466 L 547,1466 547,1186 139,1186 139,1466 Z M 139,1062 L 547,1062 547,32 C 547,-99 538,-192 519,-247 500,-302 464,-346 413,-380 362,-414 288,-431 193,-431 114,-431 17,-419 -100,-396 L -39,-100 C -6,-107 18,-110 33,-110 68,-110 94,-98 112,-74 130,-51 139,-4 139,67 L 139,1062 Z" horiz-adv-x="663" unicode="j"/><glyph d="M 138,1466 L 545,1466 545,1189 138,1189 138,1466 Z M 138,1062 L 545,1062 545,0 138,0 138,1062 Z" horiz-adv-x="425" unicode="i"/><glyph d="M 1302,430 L 486,430 C 493,365 511,316 539,284 578,238 630,215 693,215 733,215 771,225 807,245 829,258 853,280 878,312 L 1279,275 C 1218,168 1144,92 1057,46 970,-1 846,-24 684,-24 543,-24 433,-4 352,36 271,75 205,138 152,225 99,311 72,412 72,529 72,695 125,829 232,932 338,1035 485,1086 672,1086 824,1086 944,1063 1032,1017 1120,971 1187,904 1233,817 1279,730 1302,616 1302,476 L 1302,430 Z M 888,625 C 880,704 859,760 825,794 790,828 745,845 689,845 624,845 573,819 534,768 509,736 494,688 487,625 L 888,625 Z" horiz-adv-x="1244" unicode="e"/><glyph d="M 1241,1466 L 1241,0 860,0 860,157 C 807,90 758,45 714,22 655,-9 590,-24 518,-24 373,-24 263,31 187,141 110,251 72,385 72,542 72,718 114,853 199,946 283,1039 390,1086 520,1086 583,1086 641,1075 693,1054 744,1033 790,1001 830,958 L 830,1466 1241,1466 Z M 833,534 C 833,617 815,680 780,721 745,762 700,782 646,782 599,782 559,762 527,723 495,684 479,618 479,525 479,438 496,375 529,335 562,294 602,274 651,274 703,274 746,294 781,335 816,376 833,442 833,534 Z" horiz-adv-x="1192" unicode="d"/><glyph d="M 915,416 L 1302,372 C 1281,291 1246,222 1197,163 1148,104 1086,58 1011,25 935,-8 839,-24 722,-24 609,-24 516,-14 441,7 366,28 301,62 247,109 193,156 151,211 120,275 89,338 74,422 74,527 74,636 93,727 130,799 157,853 195,900 242,943 289,985 338,1016 388,1037 467,1070 569,1086 693,1086 866,1086 999,1055 1090,993 1181,931 1244,840 1281,721 L 898,670 C 886,715 864,750 833,773 801,796 758,807 705,807 638,807 583,783 542,735 500,686 479,613 479,516 479,428 500,362 541,317 582,272 635,249 699,249 752,249 797,263 834,290 870,317 897,359 915,416 Z" horiz-adv-x="1244" unicode="c"/><glyph d="M 125,1466 L 536,1466 536,958 C 577,1001 623,1033 675,1054 726,1075 783,1086 846,1086 975,1086 1082,1040 1167,947 1252,854 1294,720 1294,546 1294,430 1275,328 1236,240 1197,151 1144,85 1076,42 1007,-2 931,-24 848,-24 777,-24 711,-9 652,22 607,46 559,91 506,157 L 506,0 125,0 125,1466 Z M 533,534 C 533,443 550,377 585,336 619,295 662,274 715,274 764,274 805,294 838,335 871,375 887,443 887,538 887,622 871,684 839,723 806,762 767,782 721,782 666,782 621,762 586,721 551,680 533,617 533,534 Z" horiz-adv-x="1191" unicode="b"/><glyph d="M 494,718 L 105,759 C 120,827 141,881 169,920 196,959 236,992 288,1021 325,1042 377,1058 442,1069 507,1080 578,1086 654,1086 776,1086 874,1079 948,1066 1022,1052 1084,1023 1133,980 1168,950 1195,908 1215,853 1235,798 1245,745 1245,695 L 1245,226 C 1245,176 1248,137 1255,109 1261,80 1275,44 1296,0 L 914,0 C 899,27 889,48 884,63 879,77 875,99 870,130 817,79 764,42 711,20 639,-9 555,-24 460,-24 333,-24 237,5 172,64 106,123 73,195 73,281 73,362 97,428 144,480 191,532 279,571 406,596 559,627 658,648 703,661 748,673 796,689 847,709 847,759 837,794 816,814 795,834 759,844 707,844 640,844 590,833 557,812 531,795 510,764 494,718 Z M 847,504 C 791,484 733,466 672,451 589,429 537,407 515,386 492,364 481,339 481,311 481,279 492,253 515,233 537,212 570,202 613,202 658,202 701,213 740,235 779,257 806,284 823,316 839,347 847,388 847,439 L 847,504 Z" horiz-adv-x="1244" unicode="a"/><glyph d="M 1104,1466 L 1556,1466 1556,593 C 1556,506 1543,424 1516,347 1489,270 1446,203 1389,145 1331,88 1270,47 1207,24 1119,-9 1013,-25 890,-25 819,-25 741,-20 657,-10 572,0 502,20 445,49 388,79 337,121 290,176 243,230 210,287 193,345 165,438 151,521 151,593 L 151,1466 603,1466 603,572 C 603,492 625,429 670,384 714,339 775,317 854,317 932,317 993,339 1038,383 1082,428 1104,491 1104,572 L 1104,1466 Z" horiz-adv-x="1430" unicode="U"/><glyph d="M 148,1466 L 901,1466 C 1065,1466 1188,1427 1270,1349 1351,1271 1392,1160 1392,1016 1392,868 1348,752 1259,669 1170,586 1034,544 851,544 L 603,544 603,0 148,0 148,1466 Z M 603,841 L 714,841 C 801,841 863,856 898,887 933,917 951,956 951,1003 951,1049 936,1088 905,1120 874,1152 817,1168 732,1168 L 603,1168 603,841 Z" horiz-adv-x="1271" unicode="P"/><glyph d="M 153,1466 L 576,1466 1128,655 1128,1466 1555,1466 1555,0 1128,0 579,805 579,0 153,0 153,1466 Z" horiz-adv-x="1430" unicode="N"/><glyph d="M 887,531 L 887,836 1587,836 1587,211 C 1453,120 1335,58 1232,25 1129,-8 1006,-25 865,-25 691,-25 549,5 440,64 330,123 245,212 185,329 124,446 94,581 94,733 94,893 127,1032 193,1151 259,1269 356,1359 483,1420 582,1467 716,1491 884,1491 1046,1491 1167,1476 1248,1447 1328,1418 1395,1372 1448,1311 1501,1249 1540,1171 1567,1076 L 1130,998 C 1112,1053 1082,1096 1039,1125 996,1154 941,1169 874,1169 775,1169 696,1135 637,1066 578,997 548,887 548,738 548,579 578,466 638,398 697,330 780,296 887,296 938,296 986,303 1032,318 1078,333 1131,358 1190,393 L 1190,531 887,531 Z" horiz-adv-x="1510" unicode="G"/><glyph d="M 1051,242 L 537,242 466,0 3,0 554,1466 1048,1466 1599,0 1125,0 1051,242 Z M 957,559 L 796,1086 635,559 957,559 Z" horiz-adv-x="1615" unicode="A"/><glyph d="M 91,1466 L 1280,1466 1280,1191 C 1177,1098 1090,997 1021,888 937,756 871,609 822,447 783,321 757,172 744,0 L 338,0 C 370,239 420,440 489,602 558,764 666,937 815,1122 L 91,1122 91,1466 Z" horiz-adv-x="1192" unicode="7"/><glyph d="M 1276,0 L 54,0 C 68,121 111,234 182,341 253,447 386,572 581,717 700,806 777,873 810,919 843,965 860,1009 860,1050 860,1095 844,1133 811,1165 778,1196 736,1212 686,1212 634,1212 592,1196 559,1163 526,1130 503,1073 492,990 L 84,1023 C 100,1138 129,1227 172,1292 215,1356 275,1405 353,1440 430,1474 538,1491 675,1491 818,1491 930,1475 1010,1442 1089,1409 1152,1359 1198,1292 1243,1224 1266,1148 1266,1064 1266,975 1240,889 1188,808 1135,727 1040,637 902,540 820,483 765,444 738,421 710,398 677,369 640,332 L 1276,332 1276,0 Z" horiz-adv-x="1218" unicode="2"/><glyph d="M 1007,1491 L 1007,0 595,0 595,977 C 528,926 464,885 402,854 339,823 261,793 167,764 L 167,1098 C 306,1143 413,1196 490,1259 567,1322 627,1399 670,1491 L 1007,1491 Z" horiz-adv-x="847" unicode="1"/><glyph d="M 84,739 C 84,1018 134,1213 235,1324 335,1435 488,1491 693,1491 792,1491 873,1479 936,1455 999,1430 1051,1399 1091,1360 1131,1321 1163,1280 1186,1237 1209,1194 1227,1143 1241,1086 1268,977 1282,863 1282,744 1282,478 1237,283 1147,160 1057,37 902,-25 682,-25 559,-25 459,-5 383,34 307,73 245,131 196,207 161,261 133,335 114,429 94,522 84,626 84,739 Z M 488,738 C 488,551 505,424 538,356 571,287 618,253 681,253 722,253 758,268 789,297 819,326 841,371 856,434 870,497 877,594 877,727 877,922 861,1053 828,1120 795,1187 745,1220 679,1220 612,1220 563,1186 533,1118 503,1049 488,923 488,738 Z" horiz-adv-x="1192" unicode="0"/><glyph horiz-adv-x="688" unicode=" "/></font>
</defs>
</svg>
